Avatar (2009) EE (1080p BluRay x265 HEVC 10bit AAC 5.1 Joy)

Info

Plot: In the 22nd century, a paraplegic Marine is dispatched to the moon Pandora on a unique mission, but becomes torn between following orders and protecting an alien civilization.

Encode

Release:
Avatar.2009.Extended.UHD.Re-Grade.4000nit.2160p.HEVC.HDR.IVA(RUS.UKR.ENG).ExKinoRay.mkv (101.95 GBs)

Mediainfo

General
Format : Matroska
Format version : Version 4 / Version 2
File size : 5.42 GiB
Duration : 2 h 58 min
Overall bit rate : 4 357 kb/s
Encoded date : UTC 2020-04-06 15:31:35
Writing application : mkvmerge v40.0.0 ('Old Town Road + Pony') 64-bit
Writing library : libebml v1.3.9 + libmatroska v1.5.2
Attachments : Avatar_0.ttf / Europe_Ext_0.ttf

Video
ID : 1
Format : HEVC
Format/Info : High Efficiency Video Coding
Format profile : Main [email protected]@Main
Codec ID : V_MPEGH/ISO/HEVC
Duration : 2 h 58 min
Bit rate : 4 000 kb/s
Width : 1 920 pixels
Height : 1 080 pixels
Display aspect ratio : 16:9
Frame rate mode : Constant
Frame rate : 23.976 (24000/1001) FPS
Color space : YUV
Chroma subsampling : 4:2:0
Bit depth : 10 bits
Bits/(Pixel*Frame) : 0.080
Stream size : 4.98 GiB (92%)
Writing library : x265 3.2+9-971180b100f8:[Windows][GCC 9.2.0][64 bit] 10bit
Encoding settings : cpuid=1111039 / frame-threads=4 / numa-pools=16 / wpp / no-pmode / no-pme / no-psnr / ssim / log-level=2 / input-csp=1 / input-res=1920x1080 / interlace=0 / total-frames=256292 / level-idc=0 / high-tier=1 / uhd-bd=0 / ref=4 / no-allow-non-conformance / no-repeat-headers / annexb / no-aud / no-hrd / info / hash=0 / no-temporal-layers / open-gop / min-keyint=23 / keyint=250 / gop-lookahead=0 / bframes=8 / b-adapt=2 / b-pyramid / bframe-bias=40 / rc-lookahead=80 / lookahead-slices=4 / scenecut=40 / radl=0 / no-splice / no-intra-refresh / ctu=64 / min-cu-size=8 / rect / no-amp / max-tu-size=32 / tu-inter-depth=1 / tu-intra-depth=1 / limit-tu=0 / rdoq-level=2 / dynamic-rd=0.00 / ssim-rd / signhide / no-tskip / nr-intra=0 / nr-inter=0 / no-constrained-intra / strong-intra-smoothing / max-merge=5 / limit-refs=3 / limit-modes / me=3 / subme=7 / merange=57 / temporal-mvp / no-frame-dup / no-hme / weightp / no-weightb / no-analyze-src-pics / deblock=0:0 / sao / no-sao-non-deblock / rd=4 / selective-sao=4 / no-early-skip / rskip / no-fast-intra / no-tskip-fast / no-cu-lossless / no-b-intra / splitrd-skip / rdpenalty=0 / psy-rd=2.50 / psy-rdoq=1.50 / no-rd-refine / no-lossless / cbqpoffs=0 / crqpoffs=0 / rc=abr / bitrate=4000 / qcomp=0.60 / qpstep=4 / stats-write=0 / stats-read=2 / cplxblur=20.0 / qblur=0.5 / ipratio=1.40 / pbratio=1.30 / aq-mode=3 / aq-strength=0.40 / cutree / zone-count=0 / no-strict-cbr / qg-size=32 / no-rc-grain / qpmax=69 / qpmin=0 / no-const-vbv / sar=0 / overscan=0 / videoformat=5 / range=0 / colorprim=2 / transfer=2 / colormatrix=2 / chromaloc=0 / display-window=0 / cll=0,0 / min-luma=0 / max-luma=1023 / log2-max-poc-lsb=8 / vui-timing-info / vui-hrd-info / slices=1 / no-opt-qp-pps / no-opt-ref-list-length-pps / multi-pass-opt-rps / scenecut-bias=0.05 / no-opt-cu-delta-qp / no-aq-motion / no-hdr / no-hdr-opt / no-dhdr10-opt / no-idr-recovery-sei / analysis-load / analysis-reuse-level=10 / scale-factor=0 / refine-intra=0 / refine-inter=0 / refine-mv=1 / refine-ctu-distortion=0 / limit-sao / ctu-info=0 / no-lowpass-dct / refine-analysis-type=0 / copy-pic=1 / max-ausize-factor=1.0 / no-dynamic-refine / no-single-sei / no-hevc-aq / no-svt / no-field / qp-adaptation-range=1.00
Default : Yes
Forced : No

Audio
ID : 2
Format : AAC
Format/Info : Advanced Audio Codec
Format profile : LC
Codec ID : A_AAC
Duration : 2 h 58 min
Bit rate : 340 kb/s
Channel(s) : 6 channels
Channel positions : Front: L C R, Side: L R, LFE
Sampling rate : 48.0 kHz
Frame rate : 46.875 FPS (1024 spf)
Compression mode : Lossy
Delay relative to video : 17 ms
Stream size : 433 MiB (8%)
Language : English
Default : No
Forced : No

Subtitle #1
ID : 3
Format : UTF-8
Codec ID : S_TEXT/UTF8
Codec ID/Info : UTF-8 Plain Text
Duration : 1 h 59 min
Bit rate : 2 b/s
Count of elements : 82
Stream size : 1.92 KiB (0%)
Title : Forced
Language : English
Default : No
Forced : Yes

Subtitle #2
ID : 4
Format : UTF-8
Codec ID : S_TEXT/UTF8
Codec ID/Info : UTF-8 Plain Text
Duration : 2 h 53 min
Bit rate : 40 b/s
Count of elements : 1683
Stream size : 51.1 KiB (0%)
Title : Full
Language : English
Default : No
Forced : No

Subtitle #3
ID : 5
Format : UTF-8
Codec ID : S_TEXT/UTF8
Codec ID/Info : UTF-8 Plain Text
Duration : 2 h 57 min
Bit rate : 45 b/s
Count of elements : 2203
Stream size : 58.6 KiB (0%)
Title : SDH
Language : English
Default : No
Forced : No

Subtitle #4
ID : 6
Format : VobSub
Muxing mode : zlib
Codec ID : S_VOBSUB
Codec ID/Info : Picture based subtitle format used on DVDs
Duration : 2 h 57 min
Bit rate : 6 351 b/s
Count of elements : 1499
Stream size : 8.06 MiB (0%)
Language : Russian
Default : No
Forced : No

Subtitle #5
ID : 7
Format : VobSub
Muxing mode : zlib
Codec ID : S_VOBSUB
Codec ID/Info : Picture based subtitle format used on DVDs
Duration : 2 h 57 min
Bit rate : 6 468 b/s
Count of elements : 1493
Stream size : 8.21 MiB (0%)
Language : English
Default : No
Forced : No

Subtitle #6
ID : 8
Format : VobSub
Muxing mode : zlib
Codec ID : S_VOBSUB
Codec ID/Info : Picture based subtitle format used on DVDs
Duration : 2 h 43 min
Bit rate : 253 b/s
Count of elements : 83
Stream size : 303 KiB (0%)
Language : English
Default : No
Forced : Yes

Subtitle #7
ID : 9
Format : VobSub
Muxing mode : zlib
Codec ID : S_VOBSUB
Codec ID/Info : Picture based subtitle format used on DVDs
Duration : 2 h 57 min
Bit rate : 8 331 b/s
Count of elements : 2203
Stream size : 10.6 MiB (0%)
Language : English
Default : No
Forced : No

Subtitle #8
ID : 10
Format : VobSub
Muxing mode : zlib
Codec ID : S_VOBSUB
Codec ID/Info : Picture based subtitle format used on DVDs
Duration : 2 h 42 min
Bit rate : 259 b/s
Count of elements : 83
Stream size : 309 KiB (0%)
Language : English
Default : No
Forced : No

Menu
00:00:00.000 : en:Lost Soul
00:05:24.324 : en:A New World
00:10:23.206 : en:You Are Not in Kansas Anymore
00:11:46.665 : en:"This Is Your Avatar Now, Jake."
00:15:57.957 : en:"This Is Why We're Here..."
00:23:53.641 : en:Meeting Trudy
00:24:38.749 : en:Colonel Quaritch
00:27:53.297 : en:First Sortie
00:30:26.366 : en:Abandoned Schoolhouse
00:32:03.213 : en:Thanator Chase
00:37:15.275 : en:A Sign
00:39:06.803 : en:Viperwolves
00:41:17.225 : en:Neytiri
00:49:15.661 : en:The Omaticaya Clan
00:55:40.963 : en:Covert Report
01:01:08.165 : en:The Hallelujah Mountains
01:07:01.976 : en:Learn Fast or Die
01:11:48.971 : en:A Mother's Pain
01:18:06.640 : en:Banshee Rookery
01:22:36.869 : en:First Flight
01:26:11.458 : en:Clan Hunt
01:27:53.185 : en:Last Shadow
01:32:59.157 : en:A Son of the Omaticaya
01:37:35.391 : en:Willow Glade Destruction
01:46:47.985 : en:Conflict Escalation
01:50:01.345 : en:"You Will Never Be One of the People!"
01:51:52.331 : en:Assault on Home Tree
01:58:29.644 : en:Aftermath
02:02:12.033 : en:Escape From Hell's Gate
02:07:50.413 : en:"There's Something We Gotta Do..."
02:09:29.303 : en:Toruk Macto
02:12:35.364 : en:"She's Real"
02:16:02.112 : en:Recuiting the Clans
02:19:30.404 : en:Preamble to Battle
02:23:58.380 : en:Battle for Pandora
02:32:12.040 : en:Fall of the Heroes
02:34:51.657 : en:Eywa
02:40:01.008 : en:Quaritch Fight
02:46:29.563 : en:"I See You"
02:46:47.247 : en:My Brother
02:48:55.542 : en:Transformation
02:51:30.822 : en:End Credits

Download

File: Avatar (2009) Extended [1080p x265 10bit FS56 Joy].mkv (5.4 GB)

Movie: Google Drive

Leave a Reply