Apollo 13 (1995) (2160p BluRay x265 HEVC 10bit HDR AAC 7.1 FreetheFish)

Info

 

Plot: NASA must devise a strategy to return Apollo 13 to Earth safely after the spacecraft undergoes massive internal damage putting the lives of the three astronauts on board in jeopardy.

Encode

Source:

Apollo.13.1995.2160p.UHD.BluRay.REMUX.HDR.HEVC.DTS-X-EPSiLON.mkv (43.91 GB)

Mediainfo

General 
Format : Matroska 
Format version : Version 4 / Version 2 
File size : 17.2 GiB 
Duration : 2 h 20 min 
Overall bit rate : 17.5 Mb/s 
Encoded date : UTC 2018-10-18 03:55:28 
Writing application : mkvmerge v20.0.0 ('I Am The Sun') 64-bit 
Writing library : libebml v1.3.5 + libmatroska v1.4.8 

Video 
ID : 1 
Format : HEVC 
Format/Info : High Efficiency Video Coding 
Format profile : Main [email protected]@Main 
Codec ID : V_MPEGH/ISO/HEVC 
Duration : 2 h 20 min 
Bit rate : 16.3 Mb/s 
Width : 3 840 pixels 
Height : 1 632 pixels 
Display aspect ratio : 2.35:1 
Frame rate mode : Constant 
Frame rate : 23.976 (24000/1001) FPS 
Color space : YUV 
Chroma subsampling : 4:2:0 
Bit depth : 10 bits 
Bits/(Pixel*Frame) : 0.108 
Stream size : 16.0 GiB (93%) 
Writing library : x265 2.8+74-fd517ae68f93:[Windows][MSVC 1915][64 bit] 10bit 
Encoding settings : cpuid=1111039 / frame-threads=5 / numa-pools=32,0 / wpp / no-pmode / no-pme / no-psnr / no-ssim / log-level=2 / input-csp=1 / input-res=3840x1632 / interlace=0 / total-frames=201901 / level-idc=0 / high-tier=1 / uhd-bd=0 / ref=5 / no-allow-non-conformance / repeat-headers / annexb / no-aud / no-hrd / info / hash=0 / no-temporal-layers / open-gop / min-keyint=23 / keyint=250 / gop-lookahead=0 / bframes=8 / b-adapt=2 / b-pyramid / bframe-bias=0 / rc-lookahead=120 / lookahead-slices=0 / scenecut=40 / radl=0 / no-intra-refresh / ctu=64 / min-cu-size=8 / no-rect / no-amp / max-tu-size=32 / tu-inter-depth=2 / tu-intra-depth=2 / limit-tu=4 / rdoq-level=2 / dynamic-rd=0.00 / no-ssim-rd / signhide / no-tskip / nr-intra=0 / nr-inter=0 / no-constrained-intra / no-strong-intra-smoothing / max-merge=3 / limit-refs=2 / limit-modes / me=3 / subme=7 / merange=57 / temporal-mvp / weightp / weightb / no-analyze-src-pics / deblock=-3:-3 / no-sao / no-sao-non-deblock / rd=6 / no-early-skip / rskip / no-fast-intra / no-tskip-fast / no-cu-lossless / b-intra / no-splitrd-skip / rdpenalty=0 / psy-rd=1.85 / psy-rdoq=1.00 / no-rd-refine / no-lossless / cbqpoffs=0 / crqpoffs=0 / rc=crf / crf=17.5 / qcomp=0.60 / qpstep=4 / stats-write=0 / stats-read=0 / ipratio=1.40 / pbratio=1.30 / aq-mode=3 / aq-strength=0.90 / cutree / zone-count=0 / no-strict-cbr / qg-size=32 / no-rc-grain / qpmax=69 / qpmin=0 / no-const-vbv / sar=0 / overscan=0 / videoformat=5 / range=0 / colorprim=9 / transfer=16 / colormatrix=9 / chromaloc=0 / display-window=0 / master-display=G(13250,34500)B(7500,3000)R(34000,16000)WP(15635,16450)L(10000000,50) / max-cll=1000,293 / min-luma=0 / max-luma=1023 / log2-max-poc-lsb=8 / vui-timing-info / vui-hrd-info / slices=1 / no-opt-qp-pps / no-opt-ref-list-length-pps / no-multi-pass-opt-rps / scenecut-bias=0.05 / no-opt-cu-delta-qp / aq-motion / hdr / hdr-opt / no-dhdr10-opt / no-idr-recovery-sei / analysis-reuse-level=5 / scale-factor=0 / refine-intra=0 / refine-inter=0 / refine-mv=0 / no-limit-sao / ctu-info=0 / no-lowpass-dct / refine-mv-type=0 / copy-pic=1 / max-ausize-factor=1.0 / no-dynamic-refine / no-single-sei 
Default : Yes 
Forced : No 
Color range : Limited 
Color primaries : BT.2020 
Transfer characteristics : SMPTE ST 2084 
Matrix coefficients : BT.2020 non-constant 
Mastering display color primaries : R: x=0.680000 y=0.320000, G: x=0.265000 y=0.690000, B: x=0.150000 y=0.060000, White point: x=0.312700 y=0.329000 
Mastering display luminance : min: 0.0050 cd/m2, max: 1000.0000 cd/m2 
Maximum Content Light Level : 1000 cd/m2 
Maximum Frame-Average Light Level : 293 cd/m2 

Audio #1 
ID : 2 
Format : AAC 
Format/Info : Advanced Audio Codec 
Format profile : LC 
Codec ID : A_AAC 
Duration : 2 h 20 min 
Bit rate : 989 kb/s 
Channel(s) : 8 channels 
Channel positions : Front: L C R, Side: 4, LFE 
Sampling rate : 48.0 kHz 
Frame rate : 46.875 FPS (1024 spf) 
Compression mode : Lossy 
Delay relative to video : 20 ms 
Stream size : 992 MiB (6%) 
Language : English 
Default : Yes 
Forced : No 

Audio #2 
ID : 3 
Format : AAC 
Format/Info : Advanced Audio Codec 
Format profile : HE-AAC / LC 
Codec ID : A_AAC 
Duration : 2 h 20 min 
Bit rate : 80.0 kb/s 
Channel(s) : 2 channels 
Channel positions : Front: L R 
Sampling rate : 48.0 kHz / 24.0 kHz 
Frame rate : 23.438 FPS (1024 spf) 
Compression mode : Lossy 
Delay relative to video : 40 ms 
Stream size : 80.3 MiB (0%) 
Title : Commentary by director Ron Howard 
Language : English 
Default : No 
Forced : No 

Audio #3 
ID : 4 
Format : AAC 
Format/Info : Advanced Audio Codec 
Format profile : HE-AAC / LC 
Codec ID : A_AAC 
Duration : 2 h 20 min 
Bit rate : 80.0 kb/s 
Channel(s) : 2 channels 
Channel positions : Front: L R 
Sampling rate : 48.0 kHz / 24.0 kHz 
Frame rate : 23.438 FPS (1024 spf) 
Compression mode : Lossy 
Delay relative to video : 40 ms 
Stream size : 80.3 MiB (0%) 
Title : Commentary by Jim and Marilyn Lovell 
Language : English 
Default : No 
Forced : No 

Subtitle #1 
ID : 5 
Format : PGS 
Muxing mode : zlib 
Codec ID : S_HDMV/PGS 
Codec ID/Info : Picture based subtitle format used on BDs/HD-DVDs 
Duration : 2 h 13 min 
Bit rate : 52.3 kb/s 
Count of elements : 4270 
Stream size : 49.9 MiB (0%) 
Language : English 
Default : No 
Forced : No 

Subtitle #2 
ID : 6 
Format : PGS 
Muxing mode : zlib 
Codec ID : S_HDMV/PGS 
Codec ID/Info : Picture based subtitle format used on BDs/HD-DVDs 
Duration : 2 h 19 min 
Bit rate : 47.5 kb/s 
Count of elements : 3698 
Stream size : 47.3 MiB (0%) 
Language : German 
Default : No 
Forced : No 

Subtitle #3 
ID : 7 
Format : PGS 
Muxing mode : zlib 
Codec ID : S_HDMV/PGS 
Codec ID/Info : Picture based subtitle format used on BDs/HD-DVDs 
Duration : 2 h 19 min 
Bit rate : 44.4 kb/s 
Count of elements : 3704 
Stream size : 44.2 MiB (0%) 
Language : Turkish 
Default : No 
Forced : No 

Subtitle #4 
ID : 8 
Format : PGS 
Muxing mode : zlib 
Codec ID : S_HDMV/PGS 
Codec ID/Info : Picture based subtitle format used on BDs/HD-DVDs 
Duration : 2 h 14 min 
Bit rate : 61.4 kb/s 
Count of elements : 4104 
Stream size : 59.3 MiB (0%) 
Title : Commentary by director Ron Howard 
Language : English 
Default : No 
Forced : No 

Subtitle #5 
ID : 9 
Format : PGS 
Muxing mode : zlib 
Codec ID : S_HDMV/PGS 
Codec ID/Info : Picture based subtitle format used on BDs/HD-DVDs 
Duration : 2 h 19 min 
Bit rate : 61.7 kb/s 
Count of elements : 4128 
Stream size : 61.6 MiB (0%) 
Language : German 
Default : No 
Forced : No 

Subtitle #6 
ID : 10 
Format : PGS 
Muxing mode : zlib 
Codec ID : S_HDMV/PGS 
Codec ID/Info : Picture based subtitle format used on BDs/HD-DVDs 
Duration : 2 h 14 min 
Bit rate : 65.6 kb/s 
Count of elements : 4340 
Stream size : 62.9 MiB (0%) 
Title : Commentary by Jim and Marilyn Lovell 
Language : English 
Default : No 
Forced : No 

Subtitle #7 
ID : 11 
Format : PGS 
Muxing mode : zlib 
Codec ID : S_HDMV/PGS 
Codec ID/Info : Picture based subtitle format used on BDs/HD-DVDs 
Duration : 2 h 19 min 
Bit rate : 65.9 kb/s 
Count of elements : 4374 
Stream size : 65.9 MiB (0%) 
Language : German 
Default : No 
Forced : No 

Menu 
00:00:00.000 : en:The Moon Walk (Main Titles) 
00:09:39.120 : en:A Slight Change in Destination 
00:19:49.355 : en:Mattingly and the Measles 
00:34:21.851 : en:The Lift-Off 
00:45:15.338 : en:Hello, World 
00:49:38.184 : en:Houston, We Have a Problem... 
01:01:59.674 : en:The Special Report 
01:05:52.657 : en:The Close-Out 
01:10:05.451 : en:The Dark Side 
01:15:08.045 : en:Failure Is Not an Option 
01:17:08.040 : en:The Simulator Gambit 
01:19:41.610 : en:The Co2 Problem 
01:35:12.582 : en:A Little Medical Mutiny 
01:39:11.154 : en:The Earth in the Window 
01:48:21.495 : en:Four More Amps 
01:56:39.618 : en:The Damage Done 
01:58:49.914 : en:Farewell, Aquarius 
02:05:18.094 : en:Falling to Earth 
02:09:07.156 : en:Welcome Home 
02:14:06.538 : en:End Credits

Download

File: Apollo 13 (1995) (2160p BluRay x265 HDR FreetheFish).mkv (17.2 GB)

Movie: Google Drive

Leave a Reply