3 Idiots (2009) (1080p BluRay x265 HEVC 10bit AAC 7.1 Hindi+Chinese Natty)

Info

Plot: In the tradition of “Ferris Bueller’s Day Off” comes this refreshing comedy about a rebellious prankster with a crafty mind and a heart of gold. Rascal. Joker. Dreamer. Genius… You’ve never met a college student quite like “Rancho.” From the moment he arrives at India’s most prestigious university, Rancho’s outlandish schemes turn the campus upside down—along with the lives of his two newfound best friends. Together, they make life miserable for “Virus,” the school’s uptight and heartless dean. But when Rancho catches the eye of the dean’s sexy daughter, Virus sets his sights on flunking out the “3 idiots” once and for all.

Encode

Source:

Release: 
3.Idiots.2009.Complete.Blu-Ray.AVC DTS-HDMA.7.1-DTOne | 49 GB | desitorrents (Special Chinese BD50 with TrueHD 7.1 Audio)

Mediainfo

General 
Format : Matroska 
Format version : Version 4 / Version 2 
File size : 4.17 GiB 
Duration : 2 h 51 min 
Overall bit rate : 3 487 kb/s 
Movie name : 3 Idiots Chinese BD50 
Encoded date : UTC 2018-05-29 15:11:03 
Writing application : mkvmerge v23.0.0 ('The Bride Said No') 64-bit 
Writing library : libebml v1.3.6 + libmatroska v1.4.9 
Cover : Yes 
Attachments : cover.jpg 
Writing frontend : Natty 

Video 
ID : 1 
Format : HEVC 
Format/Info : High Efficiency Video Coding 
Format profile : Main [email protected]@Main 
Codec ID : V_MPEGH/ISO/HEVC 
Duration : 2 h 51 min 
Bit rate : 2 621 kb/s 
Width : 1 920 pixels 
Height : 816 pixels 
Display aspect ratio : 2.35:1 
Frame rate mode : Constant 
Frame rate : 24.000 FPS 
Color space : YUV 
Chroma subsampling : 4:2:0 
Bit depth : 10 bits 
Bits/(Pixel*Frame) : 0.070 
Stream size : 3.13 GiB (75%) 
Writing library : x265 2.8+1-478bfe2b7673:[Windows][MSVC 1914][64 bit] 10bit 
Encoding settings : cpuid=1111039 / frame-threads=2 / numa-pools=4 / wpp / no-pmode / no-pme / no-psnr / no-ssim / log-level=2 / input-csp=1 / input-res=1920x816 / interlace=0 / total-frames=246533 / level-idc=0 / high-tier=1 / uhd-bd=0 / ref=5 / no-allow-non-conformance / no-repeat-headers / annexb / no-aud / no-hrd / info / hash=0 / no-temporal-layers / open-gop / min-keyint=24 / keyint=400 / gop-lookahead=0 / bframes=8 / b-adapt=2 / b-pyramid / bframe-bias=0 / rc-lookahead=100 / lookahead-slices=4 / scenecut=40 / radl=0 / no-intra-refresh / ctu=32 / min-cu-size=8 / no-rect / no-amp / max-tu-size=16 / tu-inter-depth=1 / tu-intra-depth=1 / limit-tu=0 / rdoq-level=0 / dynamic-rd=0.00 / no-ssim-rd / signhide / no-tskip / nr-intra=0 / nr-inter=0 / no-constrained-intra / no-strong-intra-smoothing / max-merge=2 / limit-refs=3 / limit-modes / me=3 / subme=5 / merange=57 / temporal-mvp / weightp / weightb / no-analyze-src-pics / deblock=-2:0 / no-sao / no-sao-non-deblock / rd=4 / no-early-skip / rskip / no-fast-intra / no-tskip-fast / no-cu-lossless / no-b-intra / no-splitrd-skip / rdpenalty=0 / psy-rd=2.00 / psy-rdoq=0.00 / no-rd-refine / no-lossless / cbqpoffs=0 / crqpoffs=0 / rc=crf / crf=24.0 / qcomp=0.65 / qpstep=4 / stats-write=0 / stats-read=0 / ipratio=1.40 / pbratio=1.30 / aq-mode=3 / aq-strength=0.95 / cutree / zone-count=0 / no-strict-cbr / qg-size=32 / no-rc-grain / qpmax=69 / qpmin=0 / no-const-vbv / sar=0 / overscan=0 / videoformat=5 / range=0 / colorprim=1 / transfer=1 / colormatrix=1 / chromaloc=0 / display-window=0 / max-cll=0,0 / min-luma=0 / max-luma=1023 / log2-max-poc-lsb=8 / vui-timing-info / vui-hrd-info / slices=1 / no-opt-qp-pps / no-opt-ref-list-length-pps / multi-pass-opt-rps / scenecut-bias=0.05 / no-opt-cu-delta-qp / aq-motion / no-hdr / no-hdr-opt / no-dhdr10-opt / no-idr-recovery-sei / analysis-reuse-level=8 / scale-factor=0 / refine-intra=0 / refine-inter=0 / refine-mv=0 / no-limit-sao / ctu-info=0 / no-lowpass-dct / refine-mv-type=0 / copy-pic=1 / max-ausize-factor=1.0 / no-dynamic-refine / no-single-sei 
Default : Yes 
Forced : No 
Color range : Limited 
Color primaries : BT.709 
Transfer characteristics : BT.709 
Matrix coefficients : BT.709 

Audio #1 
ID : 2 
Format : AAC 
Format/Info : Advanced Audio Codec 
Format profile : LC 
Codec ID : A_AAC 
Duration : 2 h 51 min 
Bit rate : 691 kb/s 
Channel(s) : 8 channels 
Channel positions : Front: L C R, Side: 4, LFE 
Sampling rate : 48.0 kHz 
Frame rate : 46.875 FPS (1024 spf) 
Compression mode : Lossy 
Delay relative to video : 20 ms 
Stream size : 846 MiB (20%) 
Language : Hindi 
Default : No 
Forced : No 

Audio #2 
ID : 3 
Format : AAC 
Format/Info : Advanced Audio Codec 
Format profile : HE-AAC / LC 
Codec ID : A_AAC 
Duration : 2 h 51 min 
Bit rate : 66.2 kb/s 
Channel(s) : 2 channels 
Channel positions : Front: L R 
Sampling rate : 48.0 kHz / 24.0 kHz 
Frame rate : 23.438 FPS (1024 spf) 
Compression mode : Lossy 
Delay relative to video : 40 ms 
Stream size : 80.8 MiB (2%) 
Language : Chinese 
Default : No 
Forced : No 

Subtitle #1 
ID : 4 
Format : PGS 
Muxing mode : zlib 
Codec ID : S_HDMV/PGS 
Codec ID/Info : Picture based subtitle format used on BDs/HD-DVDs 
Duration : 2 h 47 min 
Bit rate : 40.9 kb/s 
Count of elements : 4270 
Stream size : 49.1 MiB (1%) 
Language : English 
Default : Yes 
Forced : No 

Subtitle #2 
ID : 5 
Format : PGS 
Muxing mode : zlib 
Codec ID : S_HDMV/PGS 
Codec ID/Info : Picture based subtitle format used on BDs/HD-DVDs 
Duration : 2 h 47 min 
Bit rate : 40.3 kb/s 
Count of elements : 4270 
Stream size : 48.3 MiB (1%) 
Language : Chinese 
Default : No 
Forced : No 

Subtitle #3 
ID : 6 
Format : PGS 
Muxing mode : zlib 
Codec ID : S_HDMV/PGS 
Codec ID/Info : Picture based subtitle format used on BDs/HD-DVDs 
Duration : 2 h 50 min 
Bit rate : 48.6 kb/s 
Count of elements : 4497 
Stream size : 59.4 MiB (1%) 
Language : Chinese 
Default : No 
Forced : No 

Subtitle #4 
ID : 7 
Format : PGS 
Muxing mode : zlib 
Codec ID : S_HDMV/PGS 
Codec ID/Info : Picture based subtitle format used on BDs/HD-DVDs 
Duration : 2 h 50 min 
Bit rate : 32.4 kb/s 
Count of elements : 4494 
Stream size : 39.7 MiB (1%) 
Language : Chinese 
Default : No 
Forced : No 

Subtitle #5 
ID : 8 
Format : PGS 
Muxing mode : zlib 
Codec ID : S_HDMV/PGS 
Codec ID/Info : Picture based subtitle format used on BDs/HD-DVDs 
Duration : 2 h 50 min 
Bit rate : 34.4 kb/s 
Count of elements : 4499 
Stream size : 42.0 MiB (1%) 
Language : Chinese 
Default : No 
Forced : No 

Menu 
00:00:00.000 : en:Chapter 01 
00:13:18.416 : en:Chapter 02 
00:26:22.791 : en:Chapter 03 
00:31:24.666 : en:Chapter 04 
00:37:04.333 : en:Chapter 05 
00:46:32.083 : en:Chapter 06 
00:54:21.083 : en:Chapter 07 
01:04:09.583 : en:Chapter 08 
01:10:43.250 : en:Chapter 09 
01:18:23.833 : en:Chapter 10 
01:25:51.166 : en:Chapter 11 
01:35:45.375 : en:Chapter 12 
01:43:00.333 : en:Chapter 13 
01:52:18.958 : en:Chapter 14 
01:59:51.333 : en:Chapter 15 
02:09:03.250 : en:Chapter 16 
02:19:24.958 : en:Chapter 17 
02:24:36.833 : en:Chapter 18 
02:37:48.041 : en:Chapter 19 
02:41:10.708 : en:Chapter 20

Screencaps

Download

File: 3 Idiots (2009) (1080p BluRay x265 Natty).mkv (4.2 GB)

Movie: Google Drive

Leave a Reply