2012 (2009) (1080p BluRay x265 HEVC 10bit AAC 5.1 Joy)

Info

Plot: A frustrated writer struggles to keep his family alive when a series of global catastrophes threatens to annihilate mankind.

Mediainfo

General
Unique ID                                : 175777256832488504349027903563530969745 (0x843D77DF1304B5CC811EB5150E8F2291)
Complete name                            : 2012 2009 (1080p x265 10bit Joy).mkv
Format                                   : Matroska
Format version                           : Version 4 / Version 2
File size                                : 2.06 GiB
Duration                                 : 2 h 37 min
Overall bit rate                         : 1 865 kb/s
Encoded date                             : UTC 2015-12-18 02:50:20
Writing application                      : mkvmerge v8.4.0 ('A better way to fly') 64bit
Writing library                          : libebml v1.3.1 + libmatroska v1.4.2

Video
ID                                       : 1
Format                                   : HEVC
Format/Info                              : High Efficiency Video Coding
Format profile                           : Main [email protected]@Main
Codec ID                                 : V_MPEGH/ISO/HEVC
Duration                                 : 2 h 37 min
Bit rate                                 : 1 543 kb/s
Width                                    : 1 920 pixels
Height                                   : 800 pixels
Display aspect ratio                     : 2.40:1
Frame rate mode                          : Constant
Frame rate                               : 23.976 (24000/1001) FPS
Color space                              : YUV
Chroma subsampling                       : 4:2:0
Bit depth                                : 10 bits
Bits/(Pixel*Frame)                       : 0.042
Stream size                              : 1.70 GiB (83%)
Writing library                          : x265 1.8+38-fe65544b6c40:[Windows][GCC 4.8.2][64 bit] 10bit
Encoding settings                        : wpp / ctu=64 / min-cu-size=8 / max-tu-size=32 / tu-intra-depth=1 / tu-inter-depth=1 / me=1 / subme=2 / merange=57 / no-rect / no-amp / max-merge=2 / temporal-mvp / no-early-skip / rdpenalty=0 / no-tskip / no-tskip-fast / strong-intra-smoothing / no-lossless / no-cu-lossless / no-constrained-intra / no-fast-intra / open-gop / no-temporal-layers / interlace=0 / keyint=250 / min-keyint=23 / scenecut=40 / rc-lookahead=20 / lookahead-slices=0 / bframes=4 / bframe-bias=0 / b-adapt=2 / ref=3 / limit-refs=0 / weightp / no-weightb / aq-mode=1 / qg-size=32 / aq-strength=1.00 / cbqpoffs=0 / crqpoffs=0 / rd=3 / psy-rd=0.30 / rdoq-level=0 / psy-rdoq=0.00 / signhide / deblock / sao / no-sao-non-deblock / b-pyramid / cutree / rc=2 / pass / bitrate=1542 / qcomp=0.60 / qpmin=0 / qpmax=51 / qpstep=4 / cplxblur=20.0 / qblur=0.5 / ipratio=1.40 / pbratio=1.30
Default                                  : Yes
Forced                                   : No

Audio
ID                                       : 2
Format                                   : AAC
Format/Info                              : Advanced Audio Codec
Format profile                           : HE-AAC / LC
Codec ID                                 : A_AAC
Duration                                 : 2 h 37 min
Bit rate                                 : 213 kb/s
Channel(s)                               : 6 channels
Channel positions                        : Front: L C R, Side: L R, LFE
Sampling rate                            : 48.0 kHz / 24.0 kHz
Frame rate                               : 23.438 FPS (1024 spf)
Compression mode                         : Lossy
Delay relative to video                  : 40 ms
Stream size                              : 240 MiB (11%)
Language                                 : English
Default                                  : Yes
Forced                                   : No

Text #1
ID                                       : 3
Format                                   : PGS
Muxing mode                              : zlib
Codec ID                                 : S_HDMV/PGS
Codec ID/Info                            : Picture based subtitle format used on BDs/HD-DVDs
Duration                                 : 2 h 26 min
Bit rate                                 : 15.8 kb/s
Count of elements                        : 3797
Stream size                              : 16.5 MiB (1%)
Language                                 : English
Default                                  : No
Forced                                   : No

Text #2
ID                                       : 4
Format                                   : VobSub
Muxing mode                              : zlib
Codec ID                                 : S_VOBSUB
Codec ID/Info                            : Picture based subtitle format used on DVDs
Duration                                 : 2 h 36 min
Bit rate                                 : 5 843 b/s
Count of elements                        : 1914
Stream size                              : 6.53 MiB (0%)
Language                                 : Turkish
Default                                  : No
Forced                                   : No

Text #3
ID                                       : 5
Format                                   : VobSub
Muxing mode                              : zlib
Codec ID                                 : S_VOBSUB
Codec ID/Info                            : Picture based subtitle format used on DVDs
Duration                                 : 2 h 36 min
Bit rate                                 : 4 039 b/s
Count of elements                        : 1910
Stream size                              : 4.51 MiB (0%)
Language                                 : Arabic
Default                                  : No
Forced                                   : No

Text #4
ID                                       : 6
Format                                   : VobSub
Muxing mode                              : zlib
Codec ID                                 : S_VOBSUB
Codec ID/Info                            : Picture based subtitle format used on DVDs
Duration                                 : 2 h 36 min
Bit rate                                 : 5 404 b/s
Count of elements                        : 1935
Stream size                              : 6.04 MiB (0%)
Language                                 : Bulgarian
Default                                  : No
Forced                                   : No

Text #5
ID                                       : 7
Format                                   : VobSub
Muxing mode                              : zlib
Codec ID                                 : S_VOBSUB
Codec ID/Info                            : Picture based subtitle format used on DVDs
Duration                                 : 2 h 26 min
Bit rate                                 : 5 592 b/s
Count of elements                        : 1921
Stream size                              : 5.85 MiB (0%)
Language                                 : Croatian
Default                                  : No
Forced                                   : No

Text #6
ID                                       : 8
Format                                   : VobSub
Muxing mode                              : zlib
Codec ID                                 : S_VOBSUB
Codec ID/Info                            : Picture based subtitle format used on DVDs
Duration                                 : 2 h 26 min
Bit rate                                 : 5 945 b/s
Count of elements                        : 1874
Stream size                              : 6.22 MiB (0%)
Language                                 : Estonian
Default                                  : No
Forced                                   : No

Text #7
ID                                       : 9
Format                                   : VobSub
Muxing mode                              : zlib
Codec ID                                 : S_VOBSUB
Codec ID/Info                            : Picture based subtitle format used on DVDs
Duration                                 : 2 h 27 min
Bit rate                                 : 6 299 b/s
Count of elements                        : 1872
Stream size                              : 6.63 MiB (0%)
Language                                 : Greek
Default                                  : No
Forced                                   : No

Text #8
ID                                       : 10
Format                                   : VobSub
Muxing mode                              : zlib
Codec ID                                 : S_VOBSUB
Codec ID/Info                            : Picture based subtitle format used on DVDs
Duration                                 : 2 h 36 min
Bit rate                                 : 5 475 b/s
Count of elements                        : 1898
Stream size                              : 6.12 MiB (0%)
Language                                 : Hebrew
Default                                  : No
Forced                                   : No

Text #9
ID                                       : 11
Format                                   : VobSub
Muxing mode                              : zlib
Codec ID                                 : S_VOBSUB
Codec ID/Info                            : Picture based subtitle format used on DVDs
Duration                                 : 2 h 36 min
Bit rate                                 : 5 630 b/s
Count of elements                        : 1695
Stream size                              : 6.30 MiB (0%)
Language                                 : Icelandic
Default                                  : No
Forced                                   : No

Text #10
ID                                       : 12
Format                                   : VobSub
Muxing mode                              : zlib
Codec ID                                 : S_VOBSUB
Codec ID/Info                            : Picture based subtitle format used on DVDs
Duration                                 : 2 h 26 min
Bit rate                                 : 6 960 b/s
Count of elements                        : 2073
Stream size                              : 7.28 MiB (0%)
Language                                 : Lithuanian
Default                                  : No
Forced                                   : No

Text #11
ID                                       : 13
Format                                   : VobSub
Muxing mode                              : zlib
Codec ID                                 : S_VOBSUB
Codec ID/Info                            : Picture based subtitle format used on DVDs
Duration                                 : 2 h 36 min
Bit rate                                 : 6 000 b/s
Count of elements                        : 1950
Stream size                              : 6.71 MiB (0%)
Language                                 : Romanian
Default                                  : No
Forced                                   : No

Text #12
ID                                       : 14
Format                                   : VobSub
Muxing mode                              : zlib
Codec ID                                 : S_VOBSUB
Codec ID/Info                            : Picture based subtitle format used on DVDs
Duration                                 : 2 h 36 min
Bit rate                                 : 5 709 b/s
Count of elements                        : 1940
Stream size                              : 6.38 MiB (0%)
Language                                 : Serbian
Default                                  : No
Forced                                   : No

Text #13
ID                                       : 15
Format                                   : VobSub
Muxing mode                              : zlib
Codec ID                                 : S_VOBSUB
Codec ID/Info                            : Picture based subtitle format used on DVDs
Duration                                 : 2 h 26 min
Bit rate                                 : 5 923 b/s
Count of elements                        : 1927
Stream size                              : 6.20 MiB (0%)
Language                                 : Slovak
Default                                  : No
Forced                                   : No

Text #14
ID                                       : 16
Format                                   : VobSub
Muxing mode                              : zlib
Codec ID                                 : S_VOBSUB
Codec ID/Info                            : Picture based subtitle format used on DVDs
Duration                                 : 2 h 26 min
Bit rate                                 : 4 963 b/s
Count of elements                        : 1917
Stream size                              : 5.19 MiB (0%)
Language                                 : Slovenian
Default                                  : No
Forced                                   : No

Text #15
ID                                       : 17
Format                                   : VobSub
Muxing mode                              : zlib
Codec ID                                 : S_VOBSUB
Codec ID/Info                            : Picture based subtitle format used on DVDs
Duration                                 : 2 h 9 min
Bit rate                                 : 296 b/s
Count of elements                        : 88
Stream size                              : 281 KiB (0%)
Language                                 : English
Default                                  : No
Forced                                   : No

Text #16
ID                                       : 18
Format                                   : VobSub
Muxing mode                              : zlib
Codec ID                                 : S_VOBSUB
Codec ID/Info                            : Picture based subtitle format used on DVDs
Duration                                 : 2 h 36 min
Bit rate                                 : 4 587 b/s
Count of elements                        : 1819
Stream size                              : 5.13 MiB (0%)
Language                                 : Czech
Default                                  : No
Forced                                   : No

Text #17
ID                                       : 19
Format                                   : VobSub
Muxing mode                              : zlib
Codec ID                                 : S_VOBSUB
Codec ID/Info                            : Picture based subtitle format used on DVDs
Duration                                 : 2 h 26 min
Bit rate                                 : 6 745 b/s
Count of elements                        : 1934
Stream size                              : 7.06 MiB (0%)
Language                                 : Hindi
Default                                  : No
Forced                                   : No

Text #18
ID                                       : 20
Format                                   : VobSub
Muxing mode                              : zlib
Codec ID                                 : S_VOBSUB
Codec ID/Info                            : Picture based subtitle format used on DVDs
Duration                                 : 2 h 26 min
Bit rate                                 : 5 271 b/s
Count of elements                        : 1875
Stream size                              : 5.51 MiB (0%)
Language                                 : Hungarian
Default                                  : No
Forced                                   : No

Text #19
ID                                       : 21
Format                                   : VobSub
Muxing mode                              : zlib
Codec ID                                 : S_VOBSUB
Codec ID/Info                            : Picture based subtitle format used on DVDs
Duration                                 : 2 h 36 min
Bit rate                                 : 5 426 b/s
Count of elements                        : 1826
Stream size                              : 6.07 MiB (0%)
Language                                 : Polish
Default                                  : No
Forced                                   : No

Menu
00:00:00.000                             : en:00:00:00.000
00:11:54.672                             : en:00:11:54.672
00:21:58.233                             : en:00:21:58.233
00:28:47.600                             : en:00:28:47.600
00:34:38.076                             : en:00:34:38.076
00:44:48.143                             : en:00:44:48.143
00:55:26.656                             : en:00:55:26.656
01:05:09.405                             : en:01:05:09.405
01:16:25.289                             : en:01:16:25.289
01:25:02.514                             : en:01:25:02.514
01:36:35.331                             : en:01:36:35.331
01:46:47.234                             : en:01:46:47.234
01:56:49.794                             : en:01:56:49.794
02:04:53.152                             : en:02:04:53.152
02:16:39.983                             : en:02:16:39.983
02:23:21.593                             : en:02:23:21.593

Download

File: 2012 2009 (1080p x265 10bit Joy).mkv (2.06 GB)

Movie: Google Drive

Featurettes: Google Drive

Leave a Reply